MejorTorrent : variados extend Jhalak Dikhla Ja (Season 7)
GRID.Autosport-RELOADED[rarbg]
Inicio   -   Ayuda   -   Contacto   -   Últimos Torrents

Torrents
Documentales842
Películas11256
Películas HD2068
Series1961
  Episodios22513
Series HD244
  Episodios2743
Juegos2689
  PC1736
Variados1521
  Deportes36
  Programas592
  Videoclips102
  Otros722
Música MP3 3525
Total Torrents57258

Información
Esta web no contiene ningún tipo de fichero almacenado.

Todos los archivos se comparten mediante el BitTorrent, un programa P2P de intercambio entre usuarios.



Descarga la última versión de uTorrent y baja a la máxima velocidad:
Justin Bieber - What Do You Mean
Total Descargas:  4.946 En Abril:  4.012

Fecha:  2015-12-13



Torrent:      Descargar         Tamaño:  59,55 MB
Descripción:

General
Format : MPEG-4
Format profile : Base Media / Version 2
Codec ID : mp42
File size : 59.5 MiB
Duration : 3mn 25s
Overall bit rate mode : Variable
Overall bit rate : 2 426 Kbps

Video
ID : 1
Format : AVC
Format/Info : Advanced Video Codec
Format profile : High@L3.1
Codec ID/Info : Advanced Video Coding
Duration : 3mn 25s
Bit rate : 2 232 Kbps
Width : 1 280 pixels
Height : 720 pixels
Display aspect ratio : 16:9
Frame rate mode : Constant
Frame rate : 23.976 fps
Bit depth : 8 bits
Stream size : 54.8 MiB (92%)

Audio
ID : 2
Format : AAC
Format/Info : Advanced Audio Codec
Format profile : LC
Codec ID : 40
Duration : 3mn 25s
Bit rate mode : Variable
Bit rate : 192 Kbps
Channel(s) : 2 channels
Channel positions : Front: L R
Sampling rate : 44.1 KHz
Compression mode : Lossy
Stream size : 4.71 MiB (8%)
Language : English



Volver al índice de Variados







Datos legales


07:21:11
computer